<?xml version="1.0" standalone="no"?>
<!DOCTYPE svg PUBLIC "-//W3C//DTD SVG 1.1//EN" "http://www.w3.org/Graphics/SVG/1.1/DTD/svg11.dtd">
<svg xmlns="http://www.w3.org/2000/svg">
<defs >
<font id="SourceSansPro" horiz-adv-x="570" ><font-face
    font-family="Source Sans Pro Black"
    units-per-em="1000"
    panose-1="2 11 8 3 3 4 3 2 2 4"
    ascent="984"
    descent="-273"
    alphabetic="0" />
<glyph unicode=" " glyph-name="space" horiz-adv-x="200" />
<glyph unicode="!" glyph-name="exclam" horiz-adv-x="360" d="M124 244L100 522L94 670H266L260 522L236 244H124ZM180 -12Q136 -12 108 18T80 92Q80 136 108 166T180 196Q224 196 252 166T280 92Q280 48 252 18T180 -12Z" />
<glyph unicode="&quot;" glyph-name="quotedbl" horiz-adv-x="580" d="M114 324L80 536L74 684H246L240 536L206 324H114ZM374 324L340 536L334 684H506L500 536L466 324H374Z" />
<glyph unicode="#" glyph-name="numbersign" horiz-adv-x="540" d="M84 0L106 180H34V288H118L130 384H54V492H144L164 650H260L242 492H334L354 650H450L432 492H510V384H418L406 288H490V180H394L372 0H274L296 180H204L182 0H84ZM216 288H308L320 384H228L216 288Z" />
<glyph unicode="$" glyph-name="dollar" horiz-adv-x="540" d="M212 -110V-10Q169 -5 121 13T34 66L108 182Q149 152 181 139T246 126Q284 126 300 139T316 182Q316 202 297 217T249 248T187 279T125 319T77 373T58 448Q58 524 98 574T212 640V744H324V642Q372
634 408 612T475 558L390 460Q363 484 339 496T286 508Q254 508 238 497T222 456Q222 437 241 423T289 395T351 365T413 326T461 271T480 194Q480 121 442 68T324 -4V-110H212Z" />
<glyph unicode="%" glyph-name="percent" horiz-adv-x="870" d="M190 248Q154 248 123 262T70 303T35 368T22 456Q22 505 34 543T69 607T123 648T190 662Q226 662 256 648T309 608T345 543T358 456Q358 407 345 369T310 303T257 262T190 248ZM190 342Q210 342
225 366T240 456Q240 489 236 510T225 545T209 563T190 568Q180 568 171 563T155 545T144 511T140 456Q140 390 155 366T190 342ZM214 -12L562 662H658L310 -12H214ZM680 -12Q644 -12 613 2T560 43T525 108T512 196Q512 245 524 283T559 347T613 388T680 402Q716
402 746 388T799 348T835 283T848 196Q848 147 835 109T800 43T747 2T680 -12ZM680 82Q700 82 715 106T730 196Q730 229 726 250T715 285T699 303T680 308Q670 308 661 303T645 285T634 251T630 196Q630 130 645 106T680 82Z" />
<glyph unicode="&amp;" glyph-name="ampersand" horiz-adv-x="690" d="M246 -12Q189 -12 147 3T78 45T36 105T22 176Q22 210 31 237T56 286T93 325T137 357Q118 391 108 424T98 486Q98 521 111 553T148 609T207 647T286 662Q364 662 411 621T458 508Q458 476 447
450T418 402T377 362T328 327Q353 301 382 277T442 230Q465 260 483 296T512 374H668Q651 317 625 264T562 161Q621 132 670 126L630 -12Q587 -4 544 12T456 51Q413 22 361 5T246 -12ZM239 486Q239 455 257 421Q288 439 308 459T328 508Q328 550 290 550Q270 550
255 534T239 486ZM268 118Q297 118 332 134Q264 188 214 247Q200 233 192 218T184 186Q184 156 206 137T268 118Z" />
<glyph unicode="&apos;" glyph-name="quotesingle" horiz-adv-x="320" d="M114 324L80 536L74 684H246L240 536L206 324H114Z" />
<glyph unicode="(" glyph-name="parenleft" horiz-adv-x="360" d="M200 -180Q137 -77 103 34T68 278Q68 410 102 521T200 736L308 692Q254 594 230 488T206 278Q206 174 230 68T308 -136L200 -180Z" />
<glyph unicode=")" glyph-name="parenright" horiz-adv-x="360" d="M160 -180L52 -136Q106 -38 130 68T154 278Q154 382 130 488T52 692L160 736Q223 632 257 521T292 278Q292 146 258 35T160 -180Z" />
<glyph unicode="*" glyph-name="asterisk" horiz-adv-x="472" d="M152 321L82 372L142 479L30 531L57 614L178 590L192 712H280L294 589L415 614L442 531L329 479L390 372L320 321L236 412L152 321Z" />
<glyph unicode="+" glyph-name="plus" horiz-adv-x="540" d="M208 90V270H34V390H208V570H332V390H506V270H332V90H208Z" />
<glyph unicode="," glyph-name="comma" horiz-adv-x="320" d="M80 -204L46 -114Q107 -94 137 -61T167 8H160Q121 8 91 32T60 102Q60 144 90 170T164 196Q220 196 249 155T278 40Q278 -49 228 -113T80 -204Z" />
<glyph unicode="-" glyph-name="hyphen" horiz-adv-x="340" d="M44 194V314H296V194H44Z" />
<glyph unicode="." glyph-name="period" horiz-adv-x="320" d="M160 -12Q116 -12 88 18T60 92Q60 136 88 166T160 196Q204 196 232 166T260 92Q260 48 232 18T160 -12Z" />
<glyph unicode="/" glyph-name="slash" horiz-adv-x="334" d="M14 -160L190 710H300L124 -160H14Z" />
<glyph unicode="0" glyph-name="zero" horiz-adv-x="540" d="M270 -12Q217 -12 174 9T100 73T51 177T34 320Q34 401 51 462T99 564T174 625T270 646Q322 646 365 626T440 564T489 462T506 320Q506 239 489 177T441 73T366 10T270 -12ZM270 120Q285 120 298 127T322
157T338 218T344 320Q344 383 338 421T322 480T299 507T270 514Q255 514 242 508T218 480T202 421T196 320Q196 257 202 218T218 157T241 128T270 120Z" />
<glyph unicode="1" glyph-name="one" horiz-adv-x="540" d="M66 0V138H202V466H82V572Q136 583 174 597T248 634H374V138H488V0H66Z" />
<glyph unicode="2" glyph-name="two" horiz-adv-x="540" d="M36 0V98Q92 150 140 196T225 282T281 359T302 428Q302 471 281 491T224 512Q192 512 168 494T120 452L28 544Q53 570 77 589T127 621T183 640T248 646Q296 646 336 631T405 589T450 524T466 438Q466
400 450 361T407 282T349 206T284 136Q308 139 338 141T390 144H496V0H36Z" />
<glyph unicode="3" glyph-name="three" horiz-adv-x="540" d="M246 -12Q168 -12 112 12T20 78L98 186Q127 159 160 143T228 126Q270 126 295 141T320 186Q320 204 314 218T291 242T243 257T162 262V382Q202 382 228 387T271 401T293 424T300 454Q300 512 234 512Q202
512 177 499T122 460L36 564Q83 603 133 624T242 646Q347 646 409 600T472 467Q472 375 370 330V326Q424 309 458 272T492 174Q492 129 472 95T419 36T340 0T246 -12Z" />
<glyph unicode="4" glyph-name="four" horiz-adv-x="540" d="M290 0V142H20V262L236 634H450V272H518V142H450V0H290ZM182 272H290V344Q290 360 290 379T292 419T294 458T296 494H292Q280 465 267 437T240 380L182 272Z" />
<glyph unicode="5" glyph-name="five" horiz-adv-x="540" d="M252 -12Q174 -12 118 13T22 78L98 186Q127 160 159 143T226 126Q271 126 295 146T320 208Q320 249 296 269T234 290Q221 290 211 289T192 284T171 275T146 260L72 308L88 634H464V490H236L228 398Q245
404 258 406T288 408Q329 408 366 396T431 360T475 299T492 212Q492 159 473 117T420 47T344 3T252 -12Z" />
<glyph unicode="6" glyph-name="six" horiz-adv-x="540" d="M286 -12Q240 -12 196 5T116 61T60 159T38 306Q38 392 60 456T118 562T201 625T300 646Q368 646 417 622T498 566L408 464Q393 481 366 494T312 508Q289 508 269 500T233 471T208 418T195 337Q207 352
222 364T253 384T285 396T314 400Q354 400 389 389T450 353T491 292T506 204Q506 153 489 113T441 45T371 3T286 -12ZM282 116Q309 116 329 135T350 204Q350 227 344 241T329 264T306 276T280 280Q257 280 236 268T199 226Q204 193 213 172T234 138T257 121T282
116Z" />
<glyph unicode="7" glyph-name="seven" horiz-adv-x="540" d="M152 0Q156 75 166 138T194 259T242 373T316 490H44V634H498V528Q443 464 411 408T361 293T336 163T324 0H152Z" />
<glyph unicode="8" glyph-name="eight" horiz-adv-x="540" d="M268 -12Q220 -12 179 0T107 36T59 91T42 162Q42 218 71 253T146 312V316Q108 345 85 380T62 466Q62 508 77 541T121 598T188 633T274 646Q318 646 354 634T417 599T457 543T472 470Q472 426 449 393T391
337V333Q438 308 469 269T500 166Q500 128 484 96T437 39T363 2T268 -12ZM306 378Q334 418 334 458Q334 491 317 509T270 528Q247 528 230 514T212 466Q212 434 236 415T306 378ZM272 106Q301 106 321 121T341 172Q341 189 333 202T310 225T272 246T222 268Q208
251 199 229T189 182Q189 144 214 125T272 106Z" />
<glyph unicode="9" glyph-name="nine" horiz-adv-x="540" d="M258 354Q281 354 302 366T339 408Q334 441 325 462T304 496T281 513T256 518Q229 518 209 499T188 430Q188 407 194 393T209 370T231 358T258 354ZM238 -12Q170 -12 121 12T40 68L130 170Q145 153
172 140T226 126Q250 126 270 134T305 163T331 216T343 297Q331 282 316 270T285 250T253 238T224 234Q183 234 148 245T88 281T47 342T32 430Q32 481 49 521T97 589T167 631T252 646Q298 646 342 629T422 573T478 475T500 328Q500 242 478 178T420 72T337 9T238
-12Z" />
<glyph unicode=":" glyph-name="colon" horiz-adv-x="320" d="M160 298Q116 298 88 328T60 402Q60 446 88 476T160 506Q204 506 232 476T260 402Q260 358 232 328T160 298ZM160 -12Q116 -12 88 18T60 92Q60 136 88 166T160 196Q204 196 232 166T260 92Q260 48
232 18T160 -12Z" />
<glyph unicode=";" glyph-name="semicolon" horiz-adv-x="320" d="M160 298Q116 298 88 328T60 402Q60 446 88 476T160 506Q204 506 232 476T260 402Q260 358 232 328T160 298ZM80 -204L46 -114Q107 -94 137 -61T167 8H160Q121 8 91 32T60 102Q60 144 90 170T164
196Q220 196 249 155T278 40Q278 -49 228 -113T80 -204Z" />
<glyph unicode="&lt;" glyph-name="less" horiz-adv-x="540" d="M506 94L34 274V390L506 570V430L344 380L208 334V330L344 284L506 234V94Z" />
<glyph unicode="=" glyph-name="equal" horiz-adv-x="540" d="M34 390V510H506V390H34ZM34 407V527H506V407H34Z" />
<glyph unicode="&gt;" glyph-name="greater" horiz-adv-x="540" d="M34 94V234L196 284L332 330V334L196 380L34 430V570L506 390V274L34 94Z" />
<glyph unicode="?" glyph-name="question" horiz-adv-x="478" d="M152 244Q147 276 154 303T174 352T205 394T238 430T263 462T274 494Q274 521 258 532T218 544Q192 544 174 532T136 502L42 588Q79 630 129 656T240 682Q281 682 317 672T380 641T422 587T438
506Q438 476 427 453T401 409T367 371T333 334T309 293T302 244H152ZM226 -12Q182 -12 154 18T126 92Q126 136 154 166T226 196Q270 196 298 166T326 92Q326 48 298 18T226 -12Z" />
<glyph unicode="@" glyph-name="at" horiz-adv-x="924" d="M438 -178Q362 -178 292 -155T167 -85T81 34T48 206Q48 312 85 399T185 548T332 644T512 678Q595 678 662 651T777 576T850 460T876 312Q876 242 855 190T799 104T722 52T638 34Q593 34 560 54T518 110H516Q506
95 492 83T462 62T428 49T396 44Q334 44 297 86T260 198Q260 246 276 291T320 371T385 427T466 448Q490 448 509 437T540 398H542L558 440H662L614 212Q596 138 656 138Q678 138 699 150T735 184T760 238T770 308Q770 359 756 407T710 492T626 553T498 576Q435
576 375 550T267 476T191 361T162 210Q162 136 186 82T250 -7T343 -59T452 -76Q488 -76 529 -66T600 -40L636 -132Q589 -156 541 -167T438 -178ZM434 150Q448 150 460 158T490 190L512 316Q507 327 497 333T472 340Q452 340 437 327T411 295T394 252T388 208Q388
150 434 150Z" />
<glyph unicode="A" glyph-name="A" horiz-adv-x="584" d="M240 316L229 271H349L338 316Q326 363 314 418T290 522H286Q275 472 264 418T240 316ZM-10 0L188 650H396L594 0H412L380 138H198L166 0H-10Z" />
<glyph unicode="B" glyph-name="B" horiz-adv-x="612" d="M72 0V650H306Q357 650 402 643T480 617T532 568T552 488Q552 467 546 446T530 405T504 370T470 348V344Q517 330 549 294T582 192Q582 142 562 106T507 46T425 11T326 0H72ZM244 396H302Q344 396 364
414T384 462Q384 492 364 505T302 518H244V396ZM244 132H314Q414 132 414 204Q414 240 390 255T314 270H244V132Z" />
<glyph unicode="C" glyph-name="C" horiz-adv-x="586" d="M354 -12Q292 -12 236 8T137 70T69 174T44 320Q44 402 70 465T139 572T239 639T358 662Q423 662 474 637T560 576L470 466Q446 487 421 500T362 514Q333 514 308 501T263 464T232 405T220 326Q220 234
258 185T360 136Q398 136 427 152T478 192L568 84Q526 36 472 12T354 -12Z" />
<glyph unicode="D" glyph-name="D" horiz-adv-x="642" d="M72 0V650H264Q338 650 399 632T505 575T573 475T598 328Q598 242 574 180T507 78T404 19T274 0H72ZM244 138H254Q289 138 320 146T373 176T409 234T422 328Q422 385 409 421T374 477T320 504T254 512H244V138Z" />
<glyph unicode="E" glyph-name="E" horiz-adv-x="556" d="M72 0V650H492V506H244V404H456V260H244V144H502V0H72Z" />
<glyph unicode="F" glyph-name="F" horiz-adv-x="536" d="M72 0V650H496V506H244V382H460V238H244V0H72Z" />
<glyph unicode="G" glyph-name="G" horiz-adv-x="646" d="M372 -12Q304 -12 244 8T140 70T70 174T44 320Q44 402 70 465T140 572T244 639T368 662Q440 662 492 637T580 576L490 466Q466 487 440 500T374 514Q341 514 313 501T264 464T232 405T220 326Q220 234
261 185T390 136Q404 136 417 139T440 148V238H344V378H592V68Q557 35 499 12T372 -12Z" />
<glyph unicode="H" glyph-name="H" horiz-adv-x="682" d="M72 0V650H244V408H438V650H610V0H438V258H244V0H72Z" />
<glyph unicode="I" glyph-name="I" horiz-adv-x="316" d="M72 0V650H244V0H72Z" />
<glyph unicode="J" glyph-name="J" horiz-adv-x="520" d="M232 -12Q152 -12 99 18T10 111L126 198Q143 166 165 151T208 136Q225 136 238 140T261 157T275 189T280 240V650H452V226Q452 177 439 134T398 59T330 7T232 -12Z" />
<glyph unicode="K" glyph-name="K" horiz-adv-x="628" d="M72 0V650H244V408H248L412 650H600L406 386L638 0H450L306 250L244 162V0H72Z" />
<glyph unicode="L" glyph-name="L" horiz-adv-x="530" d="M72 0V650H244V144H490V0H72Z" />
<glyph unicode="M" glyph-name="M" horiz-adv-x="776" d="M72 0V650H256L354 384Q363 357 371 328T388 270H392Q401 299 409 328T426 384L520 650H704V0H548V192Q548 217 550 247T556 308T563 370T570 424H566L512 268L432 53H340L260 268L208 424H204Q207 400
211 370T218 309T223 247T226 192V0H72Z" />
<glyph unicode="N" glyph-name="N" horiz-adv-x="672" d="M72 0V650H248L392 360L454 214H458Q455 240 451 271T444 334T439 399T436 462V650H600V0H424L280 291L218 436H214Q220 380 228 314T236 188V0H72Z" />
<glyph unicode="O" glyph-name="O" horiz-adv-x="692" d="M346 -12Q278 -12 223 11T128 77T66 184T44 328Q44 408 66 470T127 575T222 640T346 662Q413 662 469 640T564 575T626 470T648 328Q648 248 626 185T565 78T469 11T346 -12ZM346 136Q405 136 438 187T472
328Q472 417 439 465T346 514Q287 514 254 466T220 328Q220 239 253 188T346 136Z" />
<glyph unicode="P" glyph-name="P" horiz-adv-x="608" d="M72 0V650H310Q363 650 411 640T495 604T552 537T574 434Q574 374 553 331T495 261T412 220T314 206H244V0H72ZM244 342H306Q357 342 381 366T406 434Q406 478 379 496T302 514H244V342Z" />
<glyph unicode="Q" glyph-name="Q" horiz-adv-x="692" d="M346 128Q405 128 438 179T472 328Q472 417 439 465T346 514Q287 514 254 466T220 328Q220 231 253 180T346 128ZM566 -188Q511 -188 465 -175T381 -136T315 -78T268 -3Q217 9 176 36T105 106T60 204T44
328Q44 408 66 470T127 575T222 640T346 662Q413 662 469 640T564 575T626 470T648 328Q648 200 595 117T449 4Q472 -28 510 -40T586 -52Q607 -52 626 -49T660 -40L690 -164Q670 -175 639 -181T566 -188Z" />
<glyph unicode="R" glyph-name="R" horiz-adv-x="630" d="M72 0V650H318Q370 650 417 640T500 606T557 542T578 440Q578 370 550 324T473 252L614 0H422L310 218H244V0H72ZM244 354H306Q410 354 410 440Q410 482 384 498T306 514H244V354Z" />
<glyph unicode="S" glyph-name="S" horiz-adv-x="564" d="M278 -12Q216 -12 151 10T32 81L130 199Q165 171 205 154T282 136Q321 136 338 148T356 182Q356 194 350 202T333 217T305 230T268 245L187 279Q161 289 137 305T95 344T67 396T56 460Q56 502 74 538T124
602T200 646T298 662Q354 662 411 641T514 575L428 467Q395 490 365 502T298 514Q266 514 248 503T230 470Q230 447 255 435T326 405L405 374Q466 350 499 307T532 196Q532 155 515 117T466 51T386 5T278 -12Z" />
<glyph unicode="T" glyph-name="T" horiz-adv-x="564" d="M196 0V506H24V650H540V506H368V0H196Z" />
<glyph unicode="U" glyph-name="U" horiz-adv-x="672" d="M338 -12Q201 -12 135 67T68 314V650H240V294Q240 207 263 172T338 136Q389 136 413 171T438 294V650H604V314Q604 147 539 68T338 -12Z" />
<glyph unicode="V" glyph-name="V" horiz-adv-x="572" d="M182 0L-10 650H172L240 366Q254 314 264 264T288 160H292Q306 213 316 263T340 366L406 650H582L390 0H182Z" />
<glyph unicode="W" glyph-name="W" horiz-adv-x="824" d="M124 0L10 650H186L222 366Q227 315 233 264T244 162H248Q257 213 266 264T284 366L346 650H490L552 366Q561 317 570 266T588 162H592Q597 214 603 265T614 366L650 650H814L706 0H488L438 258Q430 296
425 335T414 410H410Q405 374 400 335T386 258L338 0H124Z" />
<glyph unicode="X" glyph-name="X" horiz-adv-x="588" d="M10 0L186 334L20 650H212L256 544Q267 521 277 495T302 436H306Q317 468 327 494T346 544L384 650H568L402 326L578 0H386L334 116Q322 142 311 168T288 224H284Q273 194 263 168T242 116L194 0H10Z" />
<glyph unicode="Y" glyph-name="Y" horiz-adv-x="544" d="M186 0V224L-10 650H174L222 514Q234 477 246 442T271 369H275Q288 407 300 442T326 514L374 650H554L358 224V0H186Z" />
<glyph unicode="Z" glyph-name="Z" horiz-adv-x="542" d="M32 0V104L298 506H58V650H510V546L244 144H512V0H32Z" />
<glyph unicode="[" glyph-name="bracketleft" horiz-adv-x="360" d="M84 -152V708H308V618H212V-62H308V-152H84Z" />
<glyph unicode="\" glyph-name="backslash" horiz-adv-x="334" d="M210 -160L34 710H144L320 -160H210Z" />
<glyph unicode="]" glyph-name="bracketright" horiz-adv-x="360" d="M52 -152V-62H148V618H52V708H276V-152H52Z" />
<glyph unicode="^" glyph-name="asciicircum" horiz-adv-x="540" d="M46 270L202 670H338L494 270H354L316 380L272 516H268L224 380L186 270H46Z" />
<glyph unicode="_" glyph-name="underscore" horiz-adv-x="500" d="M12 -146V-52H488V-146H12Z" />
<glyph unicode="`" glyph-name="grave" horiz-adv-x="560" d="M260 572L70 730L186 844L344 656L260 572Z" />
<glyph unicode="a" glyph-name="a" horiz-adv-x="536" d="M188 -12Q153 -12 125 0T78 34T48 83T38 142Q38 220 102 264T310 324Q304 376 240 376Q213 376 183 366T114 334L54 446Q107 478 161 495T274 512Q371 512 426 457T482 278V0H342L330 48H326Q296 21 263
5T188 -12ZM248 120Q269 120 282 129T310 154V222Q248 213 225 195T202 156Q202 120 248 120Z" />
<glyph unicode="b" glyph-name="b" horiz-adv-x="580" d="M336 -12Q303 -12 271 4T210 54H206L192 0H58V696H230V534L226 462Q252 486 284 499T349 512Q393 512 429 494T490 443T530 363T544 259Q544 194 527 144T480 59T414 6T336 -12ZM294 128Q324 128 346 156T368
256Q368 318 351 345T298 372Q278 372 263 364T230 336V152Q245 138 261 133T294 128Z" />
<glyph unicode="c" glyph-name="c" horiz-adv-x="472" d="M284 -12Q231 -12 185 5T105 56T52 139T32 250Q32 312 54 361T113 443T198 494T300 512Q345 512 381 498T446 460L366 350Q349 364 337 369T310 374Q262 374 235 341T208 250Q208 193 235 160T304 126Q325
126 345 135T384 158L450 46Q412 13 368 1T284 -12Z" />
<glyph unicode="d" glyph-name="d" horiz-adv-x="580" d="M240 -12Q193 -12 156 6T92 58T51 140T36 250Q36 311 53 360T99 442T165 494T240 512Q281 512 307 499T356 462L350 534V696H522V0H382L370 46H366Q340 20 307 4T240 -12ZM286 128Q306 128 321 135T350
164V348Q335 362 317 367T282 372Q255 372 234 345T212 252Q212 184 231 156T286 128Z" />
<glyph unicode="e" glyph-name="e" horiz-adv-x="526" d="M290 -12Q235 -12 188 5T107 56T52 139T32 250Q32 311 52 359T106 442T183 494T272 512Q327 512 368 493T436 441T476 364T490 270Q490 247 488 227T483 198H198Q210 153 241 136T314 118Q340 118 364
125T416 148L472 46Q431 17 382 3T290 -12ZM196 310H344Q344 339 330 360T276 382Q247 382 226 365T196 310Z" />
<glyph unicode="f" glyph-name="f" horiz-adv-x="360" d="M88 0V366H22V494L88 499V506Q88 546 98 582T131 647T192 691T286 708Q321 708 348 702T392 690L362 564Q350 569 337 571T312 574Q288 574 274 561T260 512V500H344V366H260V0H88Z" />
<glyph unicode="g" glyph-name="g" horiz-adv-x="546" d="M240 -206Q197 -206 159 -200T93 -178T47 -140T30 -82Q30 -23 100 14V18Q80 32 67 52T54 104Q54 130 69 155T110 198V202Q83 220 63 253T42 330Q42 376 60 410T108 467T176 501T256 512Q300 512 336 500H522V376H450Q453
367 455 353T458 324Q458 280 442 249T399 197T335 168T256 158Q231 158 200 165Q192 158 190 153T188 136Q188 119 204 113T258 106H333Q427 106 478 76T530 -24Q530 -65 510 -98T452 -156T361 -193T240 -206ZM256 260Q280 260 295 277T310 330Q310 365 295 381T256
398Q232 398 217 382T202 330Q202 294 217 277T256 260ZM268 -100Q310 -100 338 -88T366 -54Q366 -34 349 -29T299 -24H260Q230 -24 215 -23T188 -18Q179 -27 175 -35T170 -54Q170 -78 197 -89T268 -100Z" />
<glyph unicode="h" glyph-name="h" horiz-adv-x="582" d="M58 0V696H230V534L222 448Q248 471 284 491T372 512Q454 512 491 457T528 308V0H356V286Q356 334 344 350T306 366Q282 366 266 356T230 328V0H58Z" />
<glyph unicode="i" glyph-name="i" horiz-adv-x="288" d="M58 0V500H230V0H58ZM144 562Q102 562 75 586T48 648Q48 686 75 710T144 734Q186 734 213 710T240 648Q240 610 213 586T144 562Z" />
<glyph unicode="j" glyph-name="j" horiz-adv-x="290" d="M38 -188Q3 -188 -18 -184T-56 -174L-26 -48Q-15 -51 -7 -52T10 -54Q37 -54 48 -38T60 20V500H232V26Q232 -16 223 -54T192 -123T132 -170T38 -188ZM146 562Q104 562 77 586T50 648Q50 686 77 710T146
734Q188 734 215 710T242 648Q242 610 215 586T146 562Z" />
<glyph unicode="k" glyph-name="k" horiz-adv-x="568" d="M58 0V696H226V326H230L368 500H554L376 292L564 0H378L278 178L226 120V0H58Z" />
<glyph unicode="l" glyph-name="l" horiz-adv-x="298" d="M212 -12Q168 -12 139 1T91 40T66 99T58 176V696H230V170Q230 144 239 135T258 126Q263 126 266 126T276 128L296 2Q282 -4 262 -8T212 -12Z" />
<glyph unicode="m" glyph-name="m" horiz-adv-x="868" d="M58 0V500H198L210 439H214Q244 468 278 490T364 512Q415 512 448 492T502 432Q533 464 569 488T656 512Q738 512 776 457T814 308V0H642V286Q642 334 630 350T592 366Q560 366 522 328V0H350V286Q350
334 338 350T300 366Q268 366 230 328V0H58Z" />
<glyph unicode="n" glyph-name="n" horiz-adv-x="582" d="M58 0V500H198L210 440H214Q244 469 282 490T372 512Q454 512 491 457T528 308V0H356V286Q356 334 344 350T306 366Q282 366 266 356T230 328V0H58Z" />
<glyph unicode="o" glyph-name="o" horiz-adv-x="560" d="M280 -12Q232 -12 187 5T108 56T53 139T32 250Q32 312 52 361T107 443T187 494T280 512Q328 512 372 495T451 444T507 361T528 250Q528 188 507 139T452 57T373 6T280 -12ZM280 126Q319 126 335 159T352
250Q352 307 336 340T280 374Q241 374 225 341T208 250Q208 193 224 160T280 126Z" />
<glyph unicode="p" glyph-name="p" horiz-adv-x="580" d="M58 -176V500H198L210 454H214Q242 480 277 496T350 512Q394 512 430 494T491 443T530 363T544 258Q544 193 527 143T480 59T414 6T336 -12Q274 -12 224 38L230 -38V-176H58ZM294 128Q324 128 346 156T368
256Q368 318 351 345T298 372Q278 372 263 364T230 336V152Q245 138 261 133T294 128Z" />
<glyph unicode="q" glyph-name="q" horiz-adv-x="580" d="M350 -176V-33L356 38Q333 15 302 2T240 -12Q193 -12 156 6T92 58T51 140T36 250Q36 311 53 360T99 442T165 494T240 512Q280 512 310 498T370 450H374L388 500H522V-176H350ZM286 128Q306 128 321 135T350
164V348Q335 362 317 367T282 372Q255 372 234 345T212 252Q212 184 231 156T286 128Z" />
<glyph unicode="r" glyph-name="r" horiz-adv-x="418" d="M58 0V500H198L210 414H214Q242 465 280 488T356 512Q379 512 393 510T418 502L390 354Q376 357 364 359T334 362Q307 362 278 344T230 278V0H58Z" />
<glyph unicode="s" glyph-name="s" horiz-adv-x="452" d="M212 -12Q164 -12 111 7T18 58L94 164Q162 114 216 114Q243 114 254 121T266 144Q266 154 258 161T237 175T206 188T170 202Q148 211 126 223T85 254T56 295T44 350Q44 387 58 417T99 468T161 500T242
512Q304 512 348 492T426 446L350 344Q323 364 297 375T248 386Q204 386 204 358Q204 348 211 341T232 328T262 317T298 304Q320 296 343 284T384 255T414 213T426 154Q426 119 412 89T371 36T304 1T212 -12Z" />
<glyph unicode="t" glyph-name="t" horiz-adv-x="400" d="M264 -12Q215 -12 181 2T124 44T91 108T80 192V366H14V494L90 500L110 630H252V500H366V366H252V195Q252 153 270 138T312 122Q324 122 335 124T356 130L382 6Q362 0 334 -6T264 -12Z" />
<glyph unicode="u" glyph-name="u" horiz-adv-x="578" d="M210 -12Q169 -12 140 2T91 43T63 107T54 192V500H226V214Q226 166 238 150T276 134Q300 134 315 144T348 178V500H520V0H380L368 66H364Q334 30 298 9T210 -12Z" />
<glyph unicode="v" glyph-name="v" horiz-adv-x="544" d="M176 0L12 500H184L238 282Q256 207 274 126H278Q296 207 314 282L368 500H532L374 0H176Z" />
<glyph unicode="w" glyph-name="w" horiz-adv-x="798" d="M144 0L24 500H194L232 290Q238 252 242 215T252 138H256Q262 177 268 215T284 290L330 500H476L524 290Q533 252 539 215T554 138H558Q564 177 568 214T578 290L616 500H774L660 0H460L424 174Q418 209
412 244T400 321H396Q390 279 385 244T374 174L340 0H144Z" />
<glyph unicode="x" glyph-name="x" horiz-adv-x="540" d="M14 0L164 260L22 500H206L242 430Q252 409 262 387T282 344H286Q293 365 301 387T316 430L340 500H518L376 240L526 0H342L302 70Q291 91 280 113T258 156H254Q246 135 237 114T220 70L192 0H14Z" />
<glyph unicode="y" glyph-name="y" horiz-adv-x="542" d="M132 -188Q106 -188 90 -186T56 -178L86 -48Q93 -50 101 -52T118 -54Q153 -54 170 -41T196 -4L202 18L12 500H184L244 308Q255 273 263 239T280 166H284Q292 202 299 237T316 308L366 500H530L362 8Q342
-43 322 -80T274 -141T213 -176T132 -188Z" />
<glyph unicode="z" glyph-name="z" horiz-adv-x="474" d="M40 0V92L230 366H62V500H444V408L254 134H450V0H40Z" />
<glyph unicode="{" glyph-name="braceleft" horiz-adv-x="360" d="M238 -152Q203 -152 179 -145T138 -120T114 -75T106 -6Q106 20 107 40T111 78T114 114T116 156Q116 182 97 204T30 228V328Q78 330 97 352T116 400Q116 423 115 441T111 478T108 516T106 562Q106
644 137 676T238 708H308V618H292Q264 618 254 607T244 556Q244 518 246 481T248 400Q248 340 228 315T168 280V276Q208 267 228 242T248 156Q248 112 246 75T244 0Q244 -39 254 -50T292 -62H308V-152H238Z" />
<glyph unicode="|" glyph-name="bar" horiz-adv-x="278" d="M84 -250V750H194V-250H84Z" />
<glyph unicode="}" glyph-name="braceright" horiz-adv-x="360" d="M52 -152V-62H68Q96 -62 106 -51T116 0Q116 38 114 75T112 156Q112 216 132 241T192 276V280Q152 289 132 314T112 400Q112 444 114 481T116 556Q116 595 106 606T68 618H52V708H122Q191 708
222 676T254 562Q254 536 253 516T249 478T246 442T244 400Q244 374 263 352T330 328V228Q282 226 263 204T244 156Q244 133 245 115T249 78T252 40T254 -6Q254 -47 247 -75T223 -120T181 -144T122 -152H52Z" />
<glyph unicode="~" glyph-name="asciitilde" horiz-adv-x="540" d="M354 234Q322 234 300 245T258 269T222 294T184 306Q164 306 147 291T114 250L26 318Q67 378 107 402T186 426Q217 426 240 415T282 390T318 365T356 354Q376 354 393 369T426 410L514 342Q473
282 433 258T354 234Z" />
<glyph unicode="&#xa0;" glyph-name="uni00A0" horiz-adv-x="210" />
<glyph unicode="&#xa1;" glyph-name="exclamdown" horiz-adv-x="360" d="M94 -170L100 -22L124 256H236L260 -22L266 -170H94ZM180 304Q136 304 108 334T80 408Q80 452 108 482T180 512Q224 512 252 482T280 408Q280 364 252 334T180 304Z" />
<glyph unicode="&#xa2;" glyph-name="cent" horiz-adv-x="540" d="M226 306Q226 230 280 199V413Q252 398 239 371T226 306ZM280 -44V47Q179 61 120 127T60 306Q60 359 76 402T122 478T191 532T280 562V656H372V567Q410 563 441 549T494 512L416 406Q393 424 372
429V184Q389 188 404 196T432 214L500 106Q471 81 438 67T372 47V-44H280Z" />
<glyph unicode="&#xa3;" glyph-name="sterling" horiz-adv-x="540" d="M46 0V106Q88 124 120 160T152 250Q152 254 152 258T151 266H52V364L120 370H122Q117 387 114 402T110 432Q110 481 127 521T174 588T245 631T334 646Q391 646 434 625T514 562L422 470Q390
508 352 508Q317 508 296 489T274 422Q274 409 276 397T280 370H424V266H301Q302 261 302 257T302 248Q302 219 294 197T264 148V144H514V0H46Z" />
<glyph unicode="&#xa4;" glyph-name="currency" horiz-adv-x="540" d="M102 76L17 161L77 221Q44 268 44 330Q44 362 52 388T76 437L17 497L102 582L172 512Q220 532 270 532Q320 532 368 512L438 582L523 497L463 437Q479 415 487 389T496 330Q496 298 487 271T462
221L523 161L438 76L367 147Q344 137 319 133T270 128Q218 128 173 147L102 76ZM270 246Q302 246 323 268T344 330Q344 369 323 391T270 414Q238 414 217 392T196 330Q196 291 217 269T270 246Z" />
<glyph unicode="&#xa5;" glyph-name="yen" horiz-adv-x="540" d="M184 0V142H34V222H184V272H34V352H148L8 634H184L224 516Q235 483 246 451T270 386H274Q285 418 297 451T320 516L360 634H532L392 352H506V272H356V222H506V142H356V0H184Z" />
<glyph unicode="&#xa6;" glyph-name="brokenbar" horiz-adv-x="278" d="M84 320V750H194V320H84ZM84 -250V200H194V-250H84Z" />
<glyph unicode="&#xa7;" glyph-name="section" horiz-adv-x="540" d="M178 332Q178 312 192 298T230 271T281 247T337 221Q362 239 362 270Q362 290 348 305T311 332T260 355T203 380Q178 361 178 332ZM242 -92Q186 -92 131 -71T40 -2L138 84Q162 58 189 46T242
34Q269 34 280 42T292 66Q292 82 273 94T225 118T163 145T101 184T53 239T34 320Q34 355 54 389T111 447Q98 464 91 484T84 530Q84 604 134 648T272 692Q334 692 382 671T462 624L384 518Q361 538 333 552T282 566Q260 566 249 560T238 536Q238 522 258 511T307
486T372 457T436 417T486 362T506 284Q506 201 425 149Q446 117 446 74Q446 39 434 9T396 -44T332 -79T242 -92Z" />
<glyph unicode="&#xa8;" glyph-name="dieresis" horiz-adv-x="560" d="M166 562Q131 562 109 585T86 642Q86 676 108 699T166 722Q201 722 223 699T246 642Q246 608 224 585T166 562ZM394 562Q359 562 337 585T314 642Q314 676 336 699T394 722Q429 722 451 699T474
642Q474 608 452 585T394 562Z" />
<glyph unicode="&#xa9;" glyph-name="copyright" horiz-adv-x="752" d="M376 -8Q309 -8 249 15T144 81T71 186T44 326Q44 404 71 465T143 569T249 633T376 656Q443 656 503 634T608 569T681 465T708 326Q708 248 681 186T609 81T503 15T376 -8ZM376 60Q431 60
477 79T558 133T612 217T632 326Q632 386 613 434T559 517T478 569T376 588Q321 588 275 570T194 517T140 435T120 326Q120 266 139 217T193 133T274 79T376 60ZM390 128Q346 128 310 141T248 180T207 242T192 324Q192 368 208 404T252 465T314 504T388 518Q436
518 468 500T524 458L461 388Q447 403 433 411T400 420Q355 420 334 392T313 324Q313 279 334 253T394 226Q417 226 432 234T466 256L520 178Q491 155 459 142T390 128Z" />
<glyph unicode="&#xaa;" glyph-name="ordfeminine" horiz-adv-x="364" d="M128 360Q104 360 85 368T53 391T33 423T26 462Q26 515 68 544T208 582Q204 614 164 614Q146 614 125 607T78 586L36 664Q72 685 109 696T186 708Q251 708 289 671T328 554V368H232L222
400H218Q200 382 178 371T128 360ZM169 450Q182 450 190 455T208 470V514Q169 509 155 498T140 472Q140 450 169 450Z" />
<glyph unicode="&#xab;" glyph-name="guillemotleft" horiz-adv-x="500" d="M184 52L50 192V312L184 452L246 402L138 252L246 102L184 52ZM384 52L250 192V312L384 452L446 402L338 252L446 102L384 52Z" />
<glyph unicode="&#xac;" glyph-name="logicalnot" horiz-adv-x="540" d="M382 90V270H34V390H506V90H382Z" />
<glyph unicode="&#xad;" glyph-name="uni00AD" horiz-adv-x="340" d="M44 194V314H296V194H44Z" />
<glyph unicode="&#xae;" glyph-name="registered" horiz-adv-x="477" d="M238 308Q196 308 159 323T95 366T52 430T36 512Q36 556 52 593T95 658T159 700T238 716Q280 716 317 701T381 658T424 594T440 512Q440 468 424 431T381 366T317 324T238 308ZM238 362Q301
362 340 402T380 512Q380 581 341 621T238 662Q175 662 136 622T96 512Q96 443 135 403T238 362ZM154 416V610H248Q284 610 307 594T330 544Q330 527 322 513T296 490L336 416H270L242 472H218V416H154ZM218 515H236Q250 515 256 523T262 540Q262 550 255 556T236
563H218V515Z" />
<glyph unicode="&#xaf;" glyph-name="overscore" horiz-adv-x="560" d="M126 588V696H434V588H126Z" />
<glyph unicode="&#xb0;" glyph-name="degree" horiz-adv-x="378" d="M190 386Q158 386 130 397T82 429T50 476T38 536Q38 568 49 595T81 643T130 674T190 686Q222 686 250 675T298 643T330 596T342 536Q342 504 331 477T299 429T250 398T190 386ZM190 466Q219
466 236 485T254 536Q254 568 237 587T190 606Q161 606 144 587T126 536Q126 504 143 485T190 466Z" />
<glyph unicode="&#xb1;" glyph-name="plusminus" horiz-adv-x="540" d="M208 170V290H34V410H208V570H332V410H506V290H332V170H208ZM34 0V120H506V0H34Z" />
<glyph unicode="&#xb2;" glyph-name="two.sups" horiz-adv-x="380" d="M42 368V434Q76 461 106 486T159 534T195 577T208 614Q208 640 195 654T158 668Q140 668 125 657T92 624L22 688Q55 730 93 750T178 770Q246 770 287 735T328 636Q328 592 301 552T240 472H340V368H42Z"
/>
<glyph unicode="&#xb3;" glyph-name="three.sups" horiz-adv-x="380" d="M188 356Q135 356 93 375T24 436L98 494Q116 470 133 460T174 450Q194 450 208 460T222 488Q222 511 203 521T140 532V602Q171 602 189 610T208 642Q208 659 197 667T168 676Q150 676 136
666T110 640L40 702Q75 738 108 754T190 770Q218 770 243 763T287 741T318 706T330 660Q330 630 317 610T278 572Q307 558 325 535T344 478Q344 451 331 429T297 390T247 365T188 356Z" />
<glyph unicode="&#xb4;" glyph-name="acute" horiz-adv-x="560" d="M300 572L216 656L374 844L490 730L300 572Z" />
<glyph unicode="&#xb5;" glyph-name="uni00B5" horiz-adv-x="606" d="M58 -176V500H230V214Q230 166 242 150T280 134Q303 134 318 147T348 188V500H522Q520 459 518 412T515 320T512 236T510 170Q510 144 522 135T558 126Q564 126 573 127T590 132L610 6Q592
-2 570 -7T512 -12Q456 -12 420 8T368 66H364Q349 31 325 13T270 -6Q256 -6 244 -4T220 8Q222 -41 224 -83T232 -176H58Z" />
<glyph unicode="&#xb6;" glyph-name="paragraph" horiz-adv-x="666" d="M398 -80V650H570V-80H398ZM298 186Q245 186 198 201T116 247T59 321T38 424Q38 488 59 531T115 601T198 639T298 650H342V186H298Z" />
<glyph unicode="&#xb7;" glyph-name="middot" horiz-adv-x="320" d="M160 216Q116 216 88 246T60 320Q60 364 88 394T160 424Q204 424 232 394T260 320Q260 276 232 246T160 216Z" />
<glyph unicode="&#xb8;" glyph-name="cedilla" horiz-adv-x="560" d="M172 -244L160 -178Q217 -175 238 -166T260 -136Q260 -123 245 -113T184 -96L234 4H332L304 -60Q343 -69 362 -86T382 -136Q382 -190 327 -215T172 -244Z" />
<glyph unicode="&#xb9;" glyph-name="one.sups" horiz-adv-x="380" d="M162 368V638H72V714Q94 717 110 721T139 730T164 742T190 758H288V368H162Z" />
<glyph unicode="&#xba;" glyph-name="ordmasculine" horiz-adv-x="376" d="M188 360Q156 360 126 371T73 405T36 460T22 533Q22 574 36 606T73 661T126 696T188 708Q220 708 250 696T303 662T340 607T354 533Q354 492 340 460T303 406T250 372T188 360ZM188 454Q213
454 222 475T232 533Q232 570 223 592T188 614Q163 614 154 592T144 533Q144 497 153 476T188 454Z" />
<glyph unicode="&#xbb;" glyph-name="guillemotright" horiz-adv-x="500" d="M116 52L54 102L162 252L54 402L116 452L250 312V192L116 52ZM316 52L254 102L362 252L254 402L316 452L450 312V192L316 52Z" />
<glyph unicode="&#xbc;" glyph-name="onequarter" horiz-adv-x="820" d="M131 260V530H41V606Q63 609 79 613T108 622T133 634T159 650H257V260H131ZM188 -12L536 662H632L284 -12H188ZM652 0V80H472V142L604 390H762V160H820V80H762V0H652ZM584 160H652V190L658
310H654L618 234L584 160Z" />
<glyph unicode="&#xbd;" glyph-name="onehalf" horiz-adv-x="860" d="M131 260V530H41V606Q63 609 79 613T108 622T133 634T159 650H257V260H131ZM174 -12L522 662H618L270 -12H174ZM522 0V66Q556 93 586 118T639 166T675 209T688 246Q688 272 675 286T638 300Q620
300 605 289T572 256L502 320Q535 362 573 382T658 402Q726 402 767 367T808 268Q808 224 781 184T720 104H820V0H522Z" />
<glyph unicode="&#xbe;" glyph-name="threequarters" horiz-adv-x="826" d="M185 248Q132 248 90 267T21 328L95 386Q113 362 130 352T171 342Q191 342 205 352T219 380Q219 403 200 413T137 424V494Q168 494 186 502T205 534Q205 551 194 559T165 568Q147 568
133 558T107 532L37 594Q72 630 105 646T187 662Q215 662 240 655T284 633T315 598T327 552Q327 522 314 502T275 464Q304 450 322 427T341 370Q341 343 328 321T294 282T244 257T185 248ZM204 -12L552 662H648L300 -12H204ZM658 0V80H478V142L610 390H768V160H826V80H768V0H658ZM590
160H658V190L664 310H660L624 234L590 160Z" />
<glyph unicode="&#xbf;" glyph-name="questiondown" horiz-adv-x="478" d="M238 -182Q197 -182 161 -172T98 -141T56 -87T40 -6Q40 24 51 47T77 91T111 129T145 166T169 206T176 256H326Q331 224 324 197T304 148T273 106T240 70T215 38T204 6Q204 -21 220 -32T260
-44Q286 -44 304 -32T342 -2L436 -88Q398 -130 348 -156T238 -182ZM252 304Q208 304 180 334T152 408Q152 452 180 482T252 512Q296 512 324 482T352 408Q352 364 324 334T252 304Z" />
<glyph unicode="&#xc0;" glyph-name="Agrave" horiz-adv-x="584" d="M240 316L229 271H349L338 316Q326 363 314 418T290 522H286Q275 472 264 418T240 316ZM-10 0L188 650H396L594 0H412L380 138H198L166 0H-10ZM296 674L100 794L190 904L372 760L296 674Z" />
<glyph unicode="&#xc1;" glyph-name="Aacute" horiz-adv-x="584" d="M240 316L229 271H349L338 316Q326 363 314 418T290 522H286Q275 472 264 418T240 316ZM-10 0L188 650H396L594 0H412L380 138H198L166 0H-10ZM280 674L204 760L386 904L476 794L280 674Z" />
<glyph unicode="&#xc2;" glyph-name="Acircumflex" horiz-adv-x="584" d="M240 316L229 271H349L338 316Q326 363 314 418T290 522H286Q275 472 264 418T240 316ZM-10 0L188 650H396L594 0H412L380 138H198L166 0H-10ZM110 724L194 834H382L466 724L392 680L290
760H286L184 680L110 724Z" />
<glyph unicode="&#xc3;" glyph-name="Atilde" horiz-adv-x="584" d="M240 316L229 271H349L338 316Q326 363 314 418T290 522H286Q275 472 264 418T240 316ZM-10 0L188 650H396L594 0H412L380 138H198L166 0H-10ZM358 686Q332 686 312 694T275 712T247 730T224
738Q212 738 204 730T192 696L82 704Q84 745 95 774T125 821T167 847T218 856Q244 856 264 848T301 830T329 812T352 804Q364 804 372 812T384 846L494 838Q492 797 481 768T451 721T409 695T358 686Z" />
<glyph unicode="&#xc4;" glyph-name="Adieresis" horiz-adv-x="584" d="M240 316L229 271H349L338 316Q326 363 314 418T290 522H286Q275 472 264 418T240 316ZM-10 0L188 650H396L594 0H412L380 138H198L166 0H-10ZM174 694Q139 694 118 716T96 772Q96 805 117
827T174 850Q209 850 230 828T252 772Q252 739 231 717T174 694ZM402 694Q367 694 346 716T324 772Q324 805 345 827T402 850Q437 850 458 828T480 772Q480 739 459 717T402 694Z" />
<glyph unicode="&#xc5;" glyph-name="Aring" horiz-adv-x="584" d="M240 316L229 271H349L338 316Q326 363 314 418T290 522H286Q275 472 264 418T240 316ZM-10 0L188 650H396L594 0H412L380 138H198L166 0H-10ZM288 696Q234 696 201 723T168 798Q168 845 201
872T288 900Q342 900 375 873T408 798Q408 751 375 724T288 696ZM288 758Q304 758 315 769T326 798Q326 816 315 827T288 838Q272 838 261 827T250 798Q250 780 261 769T288 758Z" />
<glyph unicode="&#xc6;" glyph-name="AE" horiz-adv-x="854" d="M308 348L272 265H380V522H376Q358 475 342 431T308 348ZM-22 0L274 650H790V506H552V404H754V260H552V144H800V0H380V132H215L158 0H-22Z" />
<glyph unicode="&#xc7;" glyph-name="Ccedilla" horiz-adv-x="586" d="M354 -12Q292 -12 236 8T137 70T69 174T44 320Q44 402 70 465T139 572T239 639T358 662Q423 662 474 637T560 576L470 466Q446 487 421 500T362 514Q333 514 308 501T263 464T232 405T220
326Q220 234 258 185T360 136Q398 136 427 152T478 192L568 84Q526 36 472 12T354 -12ZM244 -244L232 -178Q289 -175 310 -166T332 -136Q332 -123 317 -113T256 -96L306 4H404L376 -60Q415 -69 434 -86T454 -136Q454 -190 399 -215T244 -244Z" />
<glyph unicode="&#xc8;" glyph-name="Egrave" horiz-adv-x="556" d="M72 0V650H492V506H244V404H456V260H244V144H502V0H72ZM298 674L102 794L192 904L374 760L298 674Z" />
<glyph unicode="&#xc9;" glyph-name="Eacute" horiz-adv-x="556" d="M72 0V650H492V506H244V404H456V260H244V144H502V0H72ZM282 674L206 760L388 904L478 794L282 674Z" />
<glyph unicode="&#xca;" glyph-name="Ecircumflex" horiz-adv-x="556" d="M72 0V650H492V506H244V404H456V260H244V144H502V0H72ZM112 724L196 834H384L468 724L394 680L292 760H288L186 680L112 724Z" />
<glyph unicode="&#xcb;" glyph-name="Edieresis" horiz-adv-x="556" d="M72 0V650H492V506H244V404H456V260H244V144H502V0H72ZM176 694Q141 694 120 716T98 772Q98 805 119 827T176 850Q211 850 232 828T254 772Q254 739 233 717T176 694ZM404 694Q369 694 348
716T326 772Q326 805 347 827T404 850Q439 850 460 828T482 772Q482 739 461 717T404 694Z" />
<glyph unicode="&#xcc;" glyph-name="Igrave" horiz-adv-x="316" d="M72 0V650H244V0H72ZM166 674L-30 794L60 904L242 760L166 674Z" />
<glyph unicode="&#xcd;" glyph-name="Iacute" horiz-adv-x="316" d="M72 0V650H244V0H72ZM150 674L74 760L256 904L346 794L150 674Z" />
<glyph unicode="&#xce;" glyph-name="Icircumflex" horiz-adv-x="316" d="M72 0V650H244V0H72ZM-20 724L64 834H252L336 724L262 680L160 760H156L54 680L-20 724Z" />
<glyph unicode="&#xcf;" glyph-name="Idieresis" horiz-adv-x="316" d="M72 0V650H244V0H72ZM44 694Q9 694 -12 716T-34 772Q-34 805 -13 827T44 850Q79 850 100 828T122 772Q122 739 101 717T44 694ZM272 694Q237 694 216 716T194 772Q194 805 215 827T272 850Q307
850 328 828T350 772Q350 739 329 717T272 694Z" />
<glyph unicode="&#xd0;" glyph-name="Eth" horiz-adv-x="668" d="M24 294V368L98 374V650H290Q364 650 425 632T531 575T599 475T624 328Q624 242 600 180T533 78T430 19T300 0H98V294H24ZM270 138H280Q315 138 346 146T399 176T435 234T448 328Q448 385 435 421T400
477T346 504T280 512H270V374H386V294H270V138Z" />
<glyph unicode="&#xd1;" glyph-name="Ntilde" horiz-adv-x="672" d="M72 0V650H248L392 360L454 214H458Q455 240 451 271T444 334T439 399T436 462V650H600V0H424L280 291L218 436H214Q220 380 228 314T236 188V0H72ZM406 686Q380 686 360 694T323 712T295 730T272
738Q260 738 252 730T240 696L130 704Q132 745 143 774T173 821T215 847T266 856Q292 856 312 848T349 830T377 812T400 804Q412 804 420 812T432 846L542 838Q540 797 529 768T499 721T457 695T406 686Z" />
<glyph unicode="&#xd2;" glyph-name="Ograve" horiz-adv-x="692" d="M346 -12Q278 -12 223 11T128 77T66 184T44 328Q44 408 66 470T127 575T222 640T346 662Q413 662 469 640T564 575T626 470T648 328Q648 248 626 185T565 78T469 11T346 -12ZM346 136Q405 136
438 187T472 328Q472 417 439 465T346 514Q287 514 254 466T220 328Q220 239 253 188T346 136ZM354 674L158 794L248 904L430 760L354 674Z" />
<glyph unicode="&#xd3;" glyph-name="Oacute" horiz-adv-x="692" d="M346 -12Q278 -12 223 11T128 77T66 184T44 328Q44 408 66 470T127 575T222 640T346 662Q413 662 469 640T564 575T626 470T648 328Q648 248 626 185T565 78T469 11T346 -12ZM346 136Q405 136
438 187T472 328Q472 417 439 465T346 514Q287 514 254 466T220 328Q220 239 253 188T346 136ZM338 674L262 760L444 904L534 794L338 674Z" />
<glyph unicode="&#xd4;" glyph-name="Ocircumflex" horiz-adv-x="692" d="M346 -12Q278 -12 223 11T128 77T66 184T44 328Q44 408 66 470T127 575T222 640T346 662Q413 662 469 640T564 575T626 470T648 328Q648 248 626 185T565 78T469 11T346 -12ZM346 136Q405
136 438 187T472 328Q472 417 439 465T346 514Q287 514 254 466T220 328Q220 239 253 188T346 136ZM168 724L252 834H440L524 724L450 680L348 760H344L242 680L168 724Z" />
<glyph unicode="&#xd5;" glyph-name="Otilde" horiz-adv-x="692" d="M346 -12Q278 -12 223 11T128 77T66 184T44 328Q44 408 66 470T127 575T222 640T346 662Q413 662 469 640T564 575T626 470T648 328Q648 248 626 185T565 78T469 11T346 -12ZM346 136Q405 136
438 187T472 328Q472 417 439 465T346 514Q287 514 254 466T220 328Q220 239 253 188T346 136ZM416 686Q390 686 370 694T333 712T305 730T282 738Q270 738 262 730T250 696L140 704Q142 745 153 774T183 821T225 847T276 856Q302 856 322 848T359 830T387 812T410
804Q422 804 430 812T442 846L552 838Q550 797 539 768T509 721T467 695T416 686Z" />
<glyph unicode="&#xd6;" glyph-name="Odieresis" horiz-adv-x="692" d="M346 -12Q278 -12 223 11T128 77T66 184T44 328Q44 408 66 470T127 575T222 640T346 662Q413 662 469 640T564 575T626 470T648 328Q648 248 626 185T565 78T469 11T346 -12ZM346 136Q405
136 438 187T472 328Q472 417 439 465T346 514Q287 514 254 466T220 328Q220 239 253 188T346 136ZM232 694Q197 694 176 716T154 772Q154 805 175 827T232 850Q267 850 288 828T310 772Q310 739 289 717T232 694ZM460 694Q425 694 404 716T382 772Q382 805 403
827T460 850Q495 850 516 828T538 772Q538 739 517 717T460 694Z" />
<glyph unicode="&#xd7;" glyph-name="multiply" horiz-adv-x="540" d="M132 106L47 191L185 329L47 467L132 552L270 414L408 552L493 467L355 329L493 191L408 106L270 244L132 106Z" />
<glyph unicode="&#xd8;" glyph-name="Oslash" horiz-adv-x="692" d="M346 -12Q253 -12 186 30L124 -46L36 22L105 106Q76 148 60 203T44 328Q44 408 66 470T127 575T222 640T346 662Q446 662 520 613L588 696L676 628L597 532Q622 492 635 441T648 328Q648 248
626 185T565 78T469 11T346 -12ZM220 328Q220 286 227 255L418 488Q387 514 346 514Q287 514 254 466T220 328ZM346 136Q405 136 438 187T472 328Q472 354 469 375L287 153Q313 136 346 136Z" />
<glyph unicode="&#xd9;" glyph-name="Ugrave" horiz-adv-x="672" d="M338 -12Q201 -12 135 67T68 314V650H240V294Q240 207 263 172T338 136Q389 136 413 171T438 294V650H604V314Q604 147 539 68T338 -12ZM344 674L148 794L238 904L420 760L344 674Z" />
<glyph unicode="&#xda;" glyph-name="Uacute" horiz-adv-x="672" d="M338 -12Q201 -12 135 67T68 314V650H240V294Q240 207 263 172T338 136Q389 136 413 171T438 294V650H604V314Q604 147 539 68T338 -12ZM328 674L252 760L434 904L524 794L328 674Z" />
<glyph unicode="&#xdb;" glyph-name="Ucircumflex" horiz-adv-x="672" d="M338 -12Q201 -12 135 67T68 314V650H240V294Q240 207 263 172T338 136Q389 136 413 171T438 294V650H604V314Q604 147 539 68T338 -12ZM158 724L242 834H430L514 724L440 680L338 760H334L232
680L158 724Z" />
<glyph unicode="&#xdc;" glyph-name="Udieresis" horiz-adv-x="672" d="M338 -12Q201 -12 135 67T68 314V650H240V294Q240 207 263 172T338 136Q389 136 413 171T438 294V650H604V314Q604 147 539 68T338 -12ZM222 694Q187 694 166 716T144 772Q144 805 165 827T222
850Q257 850 278 828T300 772Q300 739 279 717T222 694ZM450 694Q415 694 394 716T372 772Q372 805 393 827T450 850Q485 850 506 828T528 772Q528 739 507 717T450 694Z" />
<glyph unicode="&#xdd;" glyph-name="Yacute" horiz-adv-x="544" d="M186 0V224L-10 650H174L222 514Q234 477 246 442T271 369H275Q288 407 300 442T326 514L374 650H554L358 224V0H186ZM264 674L188 760L370 904L460 794L264 674Z" />
<glyph unicode="&#xde;" glyph-name="Thorn" horiz-adv-x="630" d="M72 0V650H244V556H324Q376 556 423 546T506 510T563 443T584 340Q584 280 563 237T505 167T422 126T324 112H244V0H72ZM244 248H316Q367 248 391 272T416 340Q416 384 390 402T316 420H244V248Z" />
<glyph unicode="&#xdf;" glyph-name="germandbls" horiz-adv-x="654" d="M434 -12Q389 -12 354 -1T280 32L338 148Q362 130 384 122T428 114Q448 114 460 123T472 150Q472 165 460 176T429 198T388 221T348 250T317 289T304 344Q304 371 314 391T336 429T358 466T368
512Q368 538 354 555T312 572Q269 572 249 541T228 458V0H58V476Q58 525 73 567T119 640T198 688T312 706Q367 706 408 691T477 652T518 597T532 532Q532 497 521 473T496 430T471 397T460 366Q460 352 472 342T503 322T544 298T584 267T615 222T628 158Q628 123
616 92T580 38T520 2T434 -12Z" />
<glyph unicode="&#xe0;" glyph-name="agrave" horiz-adv-x="536" d="M188 -12Q153 -12 125 0T78 34T48 83T38 142Q38 220 102 264T310 324Q304 376 240 376Q213 376 183 366T114 334L54 446Q107 478 161 495T274 512Q371 512 426 457T482 278V0H342L330 48H326Q296
21 263 5T188 -12ZM248 120Q269 120 282 129T310 154V222Q248 213 225 195T202 156Q202 120 248 120ZM261 572L71 730L187 844L345 656L261 572Z" />
<glyph unicode="&#xe1;" glyph-name="aacute" horiz-adv-x="536" d="M188 -12Q153 -12 125 0T78 34T48 83T38 142Q38 220 102 264T310 324Q304 376 240 376Q213 376 183 366T114 334L54 446Q107 478 161 495T274 512Q371 512 426 457T482 278V0H342L330 48H326Q296
21 263 5T188 -12ZM248 120Q269 120 282 129T310 154V222Q248 213 225 195T202 156Q202 120 248 120ZM301 572L217 656L375 844L491 730L301 572Z" />
<glyph unicode="&#xe2;" glyph-name="acircumflex" horiz-adv-x="536" d="M188 -12Q153 -12 125 0T78 34T48 83T38 142Q38 220 102 264T310 324Q304 376 240 376Q213 376 183 366T114 334L54 446Q107 478 161 495T274 512Q371 512 426 457T482 278V0H342L330 48H326Q296
21 263 5T188 -12ZM248 120Q269 120 282 129T310 154V222Q248 213 225 195T202 156Q202 120 248 120ZM87 618L193 746H369L475 618L411 558L283 642H279L151 558L87 618Z" />
<glyph unicode="&#xe3;" glyph-name="atilde" horiz-adv-x="536" d="M188 -12Q153 -12 125 0T78 34T48 83T38 142Q38 220 102 264T310 324Q304 376 240 376Q213 376 183 366T114 334L54 446Q107 478 161 495T274 512Q371 512 426 457T482 278V0H342L330 48H326Q296
21 263 5T188 -12ZM248 120Q269 120 282 129T310 154V222Q248 213 225 195T202 156Q202 120 248 120ZM345 572Q322 572 304 580T270 599T243 619T221 628Q209 628 202 619T191 582L85 588Q87 673 122 709T217 746Q239 746 258 737T292 718T319 699T341 690Q353
690 360 699T371 736L477 730Q475 645 440 609T345 572Z" />
<glyph unicode="&#xe4;" glyph-name="adieresis" horiz-adv-x="536" d="M188 -12Q153 -12 125 0T78 34T48 83T38 142Q38 220 102 264T310 324Q304 376 240 376Q213 376 183 366T114 334L54 446Q107 478 161 495T274 512Q371 512 426 457T482 278V0H342L330 48H326Q296
21 263 5T188 -12ZM248 120Q269 120 282 129T310 154V222Q248 213 225 195T202 156Q202 120 248 120ZM167 562Q132 562 110 585T87 642Q87 676 109 699T167 722Q202 722 224 699T247 642Q247 608 225 585T167 562ZM395 562Q360 562 338 585T315 642Q315 676 337
699T395 722Q430 722 452 699T475 642Q475 608 453 585T395 562Z" />
<glyph unicode="&#xe5;" glyph-name="aring" horiz-adv-x="536" d="M188 -12Q153 -12 125 0T78 34T48 83T38 142Q38 220 102 264T310 324Q304 376 240 376Q213 376 183 366T114 334L54 446Q107 478 161 495T274 512Q371 512 426 457T482 278V0H342L330 48H326Q296
21 263 5T188 -12ZM248 120Q269 120 282 129T310 154V222Q248 213 225 195T202 156Q202 120 248 120ZM281 568Q210 568 176 599T141 674Q141 718 175 749T281 780Q352 780 386 749T421 674Q421 630 387 599T281 568ZM281 630Q297 630 308 642T319 674Q319 694 308
706T281 718Q265 718 254 706T243 674Q243 654 254 642T281 630Z" />
<glyph unicode="&#xe6;" glyph-name="ae" horiz-adv-x="786" d="M192 -12Q157 -12 129 0T82 34T52 83T42 142Q42 220 105 265T312 325Q309 351 294 363T244 376Q217 376 187 366T118 334L58 446Q111 478 162 495T268 512Q312 512 347 495T406 448Q439 480 472
496T548 512Q599 512 637 493T700 440T737 361T750 266Q750 243 748 225T743 198H468Q479 156 507 139T574 122Q600 122 623 131T674 156L732 46Q691 17 642 3T550 -12Q497 -12 455 7T380 60Q353 39 330 26T284 4T240 -8T192 -12ZM252 120Q274 120 291 128T324
150Q315 177 312 203L310 222Q253 213 230 196T206 156Q206 120 252 120ZM468 302H604Q604 335 591 358T542 382Q513 382 494 364T468 302Z" />
<glyph unicode="&#xe7;" glyph-name="ccedilla" horiz-adv-x="472" d="M284 -12Q231 -12 185 5T105 56T52 139T32 250Q32 312 54 361T113 443T198 494T300 512Q345 512 381 498T446 460L366 350Q349 364 337 369T310 374Q262 374 235 341T208 250Q208 193 235
160T304 126Q325 126 345 135T384 158L450 46Q412 13 368 1T284 -12ZM179 -244L167 -178Q224 -175 245 -166T267 -136Q267 -123 252 -113T191 -96L241 4H339L311 -60Q350 -69 369 -86T389 -136Q389 -190 334 -215T179 -244Z" />
<glyph unicode="&#xe8;" glyph-name="egrave" horiz-adv-x="526" d="M290 -12Q235 -12 188 5T107 56T52 139T32 250Q32 311 52 359T106 442T183 494T272 512Q327 512 368 493T436 441T476 364T490 270Q490 247 488 227T483 198H198Q210 153 241 136T314 118Q340
118 364 125T416 148L472 46Q431 17 382 3T290 -12ZM196 310H344Q344 339 330 360T276 382Q247 382 226 365T196 310ZM252 572L62 730L178 844L336 656L252 572Z" />
<glyph unicode="&#xe9;" glyph-name="eacute" horiz-adv-x="526" d="M290 -12Q235 -12 188 5T107 56T52 139T32 250Q32 311 52 359T106 442T183 494T272 512Q327 512 368 493T436 441T476 364T490 270Q490 247 488 227T483 198H198Q210 153 241 136T314 118Q340
118 364 125T416 148L472 46Q431 17 382 3T290 -12ZM196 310H344Q344 339 330 360T276 382Q247 382 226 365T196 310ZM292 572L208 656L366 844L482 730L292 572Z" />
<glyph unicode="&#xea;" glyph-name="ecircumflex" horiz-adv-x="526" d="M290 -12Q235 -12 188 5T107 56T52 139T32 250Q32 311 52 359T106 442T183 494T272 512Q327 512 368 493T436 441T476 364T490 270Q490 247 488 227T483 198H198Q210 153 241 136T314 118Q340
118 364 125T416 148L472 46Q431 17 382 3T290 -12ZM196 310H344Q344 339 330 360T276 382Q247 382 226 365T196 310ZM78 618L184 746H360L466 618L402 558L274 642H270L142 558L78 618Z" />
<glyph unicode="&#xeb;" glyph-name="edieresis" horiz-adv-x="526" d="M290 -12Q235 -12 188 5T107 56T52 139T32 250Q32 311 52 359T106 442T183 494T272 512Q327 512 368 493T436 441T476 364T490 270Q490 247 488 227T483 198H198Q210 153 241 136T314 118Q340
118 364 125T416 148L472 46Q431 17 382 3T290 -12ZM196 310H344Q344 339 330 360T276 382Q247 382 226 365T196 310ZM158 562Q123 562 101 585T78 642Q78 676 100 699T158 722Q193 722 215 699T238 642Q238 608 216 585T158 562ZM386 562Q351 562 329 585T306
642Q306 676 328 699T386 722Q421 722 443 699T466 642Q466 608 444 585T386 562Z" />
<glyph unicode="&#xec;" glyph-name="igrave" horiz-adv-x="288" d="M58 0V500H230V0H58ZM124 572L-66 730L50 844L208 656L124 572Z" />
<glyph unicode="&#xed;" glyph-name="iacute" horiz-adv-x="288" d="M58 0V500H230V0H58ZM164 572L80 656L238 844L354 730L164 572Z" />
<glyph unicode="&#xee;" glyph-name="icircumflex" horiz-adv-x="288" d="M58 0V500H230V0H58ZM-50 618L56 746H232L338 618L274 558L146 642H142L14 558L-50 618Z" />
<glyph unicode="&#xef;" glyph-name="idieresis" horiz-adv-x="288" d="M58 0V500H230V0H58ZM30 562Q-5 562 -27 585T-50 642Q-50 676 -28 699T30 722Q65 722 87 699T110 642Q110 608 88 585T30 562ZM258 562Q223 562 201 585T178 642Q178 676 200 699T258 722Q293
722 315 699T338 642Q338 608 316 585T258 562Z" />
<glyph unicode="&#xf0;" glyph-name="eth" horiz-adv-x="566" d="M274 -12Q226 -12 183 5T108 53T57 129T38 230Q38 285 55 327T101 399T166 443T240 458Q264 458 288 451T332 427Q307 488 258 536L116 465L72 539L183 595Q165 606 145 617T103 640L177 744Q212
726 247 706T315 661L458 733L502 658L386 600Q446 540 483 460T520 270Q520 209 503 158T455 69T378 10T274 -12ZM280 126Q296 126 311 133T336 156T353 197T360 260Q360 271 360 280T359 299Q341 317 321 324T277 332Q242 332 218 309T194 230Q194 177 219 152T280
126Z" />
<glyph unicode="&#xf1;" glyph-name="ntilde" horiz-adv-x="582" d="M58 0V500H198L210 440H214Q244 469 282 490T372 512Q454 512 491 457T528 308V0H356V286Q356 334 344 350T306 366Q282 366 266 356T230 328V0H58ZM378 572Q355 572 337 580T303 599T276 619T254
628Q242 628 235 619T224 582L118 588Q120 673 155 709T250 746Q272 746 291 737T325 718T352 699T374 690Q386 690 393 699T404 736L510 730Q508 645 473 609T378 572Z" />
<glyph unicode="&#xf2;" glyph-name="ograve" horiz-adv-x="560" d="M280 -12Q232 -12 187 5T108 56T53 139T32 250Q32 312 52 361T107 443T187 494T280 512Q328 512 372 495T451 444T507 361T528 250Q528 188 507 139T452 57T373 6T280 -12ZM280 126Q319 126
335 159T352 250Q352 307 336 340T280 374Q241 374 225 341T208 250Q208 193 224 160T280 126ZM260 572L70 730L186 844L344 656L260 572Z" />
<glyph unicode="&#xf3;" glyph-name="oacute" horiz-adv-x="560" d="M280 -12Q232 -12 187 5T108 56T53 139T32 250Q32 312 52 361T107 443T187 494T280 512Q328 512 372 495T451 444T507 361T528 250Q528 188 507 139T452 57T373 6T280 -12ZM280 126Q319 126
335 159T352 250Q352 307 336 340T280 374Q241 374 225 341T208 250Q208 193 224 160T280 126ZM300 572L216 656L374 844L490 730L300 572Z" />
<glyph unicode="&#xf4;" glyph-name="ocircumflex" horiz-adv-x="560" d="M280 -12Q232 -12 187 5T108 56T53 139T32 250Q32 312 52 361T107 443T187 494T280 512Q328 512 372 495T451 444T507 361T528 250Q528 188 507 139T452 57T373 6T280 -12ZM280 126Q319
126 335 159T352 250Q352 307 336 340T280 374Q241 374 225 341T208 250Q208 193 224 160T280 126ZM86 618L192 746H368L474 618L410 558L282 642H278L150 558L86 618Z" />
<glyph unicode="&#xf5;" glyph-name="otilde" horiz-adv-x="560" d="M280 -12Q232 -12 187 5T108 56T53 139T32 250Q32 312 52 361T107 443T187 494T280 512Q328 512 372 495T451 444T507 361T528 250Q528 188 507 139T452 57T373 6T280 -12ZM280 126Q319 126
335 159T352 250Q352 307 336 340T280 374Q241 374 225 341T208 250Q208 193 224 160T280 126ZM344 572Q321 572 303 580T269 599T242 619T220 628Q208 628 201 619T190 582L84 588Q86 673 121 709T216 746Q238 746 257 737T291 718T318 699T340 690Q352 690 359
699T370 736L476 730Q474 645 439 609T344 572Z" />
<glyph unicode="&#xf6;" glyph-name="odieresis" horiz-adv-x="560" d="M280 -12Q232 -12 187 5T108 56T53 139T32 250Q32 312 52 361T107 443T187 494T280 512Q328 512 372 495T451 444T507 361T528 250Q528 188 507 139T452 57T373 6T280 -12ZM280 126Q319 126
335 159T352 250Q352 307 336 340T280 374Q241 374 225 341T208 250Q208 193 224 160T280 126ZM166 562Q131 562 109 585T86 642Q86 676 108 699T166 722Q201 722 223 699T246 642Q246 608 224 585T166 562ZM394 562Q359 562 337 585T314 642Q314 676 336 699T394
722Q429 722 451 699T474 642Q474 608 452 585T394 562Z" />
<glyph unicode="&#xf7;" glyph-name="divide" horiz-adv-x="540" d="M34 270V390H506V270H34ZM270 64Q231 64 205 88T178 150Q178 188 204 212T270 236Q309 236 335 212T362 150Q362 112 336 88T270 64ZM270 424Q231 424 205 448T178 510Q178 548 204 572T270
596Q309 596 335 572T362 510Q362 472 336 448T270 424Z" />
<glyph unicode="&#xf8;" glyph-name="oslash" horiz-adv-x="560" d="M280 -12Q209 -12 149 25L108 -26L46 22L90 77Q63 109 48 152T32 250Q32 312 52 361T107 443T187 494T280 512Q351 512 410 476L452 528L514 480L469 424Q496 392 512 348T528 250Q528 188 507
139T452 57T373 6T280 -12ZM198 260Q198 247 198 236T200 215L323 367Q306 380 280 380Q241 380 220 347T198 260ZM280 120Q319 120 340 153T362 240Q362 266 359 287L236 134Q253 120 280 120Z" />
<glyph unicode="&#xf9;" glyph-name="ugrave" horiz-adv-x="578" d="M210 -12Q169 -12 140 2T91 43T63 107T54 192V500H226V214Q226 166 238 150T276 134Q300 134 315 144T348 178V500H520V0H380L368 66H364Q334 30 298 9T210 -12ZM270 572L80 730L196 844L354
656L270 572Z" />
<glyph unicode="&#xfa;" glyph-name="uacute" horiz-adv-x="578" d="M210 -12Q169 -12 140 2T91 43T63 107T54 192V500H226V214Q226 166 238 150T276 134Q300 134 315 144T348 178V500H520V0H380L368 66H364Q334 30 298 9T210 -12ZM310 572L226 656L384 844L500
730L310 572Z" />
<glyph unicode="&#xfb;" glyph-name="ucircumflex" horiz-adv-x="578" d="M210 -12Q169 -12 140 2T91 43T63 107T54 192V500H226V214Q226 166 238 150T276 134Q300 134 315 144T348 178V500H520V0H380L368 66H364Q334 30 298 9T210 -12ZM96 618L202 746H378L484
618L420 558L292 642H288L160 558L96 618Z" />
<glyph unicode="&#xfc;" glyph-name="udieresis" horiz-adv-x="578" d="M210 -12Q169 -12 140 2T91 43T63 107T54 192V500H226V214Q226 166 238 150T276 134Q300 134 315 144T348 178V500H520V0H380L368 66H364Q334 30 298 9T210 -12ZM176 562Q141 562 119 585T96
642Q96 676 118 699T176 722Q211 722 233 699T256 642Q256 608 234 585T176 562ZM404 562Q369 562 347 585T324 642Q324 676 346 699T404 722Q439 722 461 699T484 642Q484 608 462 585T404 562Z" />
<glyph unicode="&#xfd;" glyph-name="yacute" horiz-adv-x="542" d="M132 -188Q106 -188 90 -186T56 -178L86 -48Q93 -50 101 -52T118 -54Q153 -54 170 -41T196 -4L202 18L12 500H184L244 308Q255 273 263 239T280 166H284Q292 202 299 237T316 308L366 500H530L362
8Q342 -43 322 -80T274 -141T213 -176T132 -188ZM296 572L212 656L370 844L486 730L296 572Z" />
<glyph unicode="&#xfe;" glyph-name="thorn" horiz-adv-x="580" d="M58 -176V696H230V533L226 468Q249 489 278 500T340 512Q386 512 424 494T488 443T529 363T544 258Q544 193 527 143T480 59T414 6T336 -12Q300 -12 275 -1T226 32L230 -38V-176H58ZM294 128Q324
128 346 156T368 256Q368 318 351 345T298 372Q278 372 263 364T230 336V152Q245 138 261 133T294 128Z" />
<glyph unicode="&#xff;" glyph-name="ydieresis" horiz-adv-x="542" d="M132 -188Q106 -188 90 -186T56 -178L86 -48Q93 -50 101 -52T118 -54Q153 -54 170 -41T196 -4L202 18L12 500H184L244 308Q255 273 263 239T280 166H284Q292 202 299 237T316 308L366 500H530L362
8Q342 -43 322 -80T274 -141T213 -176T132 -188ZM162 562Q127 562 105 585T82 642Q82 676 104 699T162 722Q197 722 219 699T242 642Q242 608 220 585T162 562ZM390 562Q355 562 333 585T310 642Q310 676 332 699T390 722Q425 722 447 699T470 642Q470 608 448
585T390 562Z" />
<glyph unicode="&#x2013;" glyph-name="endash" horiz-adv-x="480" d="M44 200V308H436V200H44Z" />
<glyph unicode="&#x2014;" glyph-name="emdash" horiz-adv-x="800" d="M44 200V308H756V200H44Z" />
<glyph unicode="&#x2018;" glyph-name="quoteleft" horiz-adv-x="320" d="M160 304Q107 304 81 342T54 450Q54 525 92 582T210 678L246 604Q198 583 174 553T150 477Q153 478 160 478Q196 478 221 456T246 396Q246 354 222 329T160 304Z" />
<glyph unicode="&#x2019;" glyph-name="quoteright" horiz-adv-x="320" d="M110 322L74 396Q122 417 146 447T170 523Q167 522 160 522Q124 522 99 544T74 604Q74 646 98 671T160 696Q213 696 239 658T266 550Q266 475 228 418T110 322Z" />
<glyph unicode="&#x201a;" glyph-name="quotesinglbase" horiz-adv-x="320" d="M110 -177L74 -103Q122 -82 146 -52T170 24Q167 23 160 23Q124 23 99 45T74 105Q74 147 98 172T160 197Q213 197 239 159T266 51Q266 -24 228 -81T110 -177Z" />
<glyph unicode="&#x201c;" glyph-name="quotedblleft" horiz-adv-x="580" d="M160 304Q107 304 81 342T54 450Q54 525 92 582T210 678L246 604Q198 583 174 553T150 477Q153 478 160 478Q196 478 221 456T246 396Q246 354 222 329T160 304ZM420 304Q367 304 341
342T314 450Q314 525 352 582T470 678L506 604Q458 583 434 553T410 477Q413 478 420 478Q456 478 481 456T506 396Q506 354 482 329T420 304Z" />
<glyph unicode="&#x201d;" glyph-name="quotedblright" horiz-adv-x="580" d="M110 322L74 396Q122 417 146 447T170 523Q167 522 160 522Q124 522 99 544T74 604Q74 646 98 671T160 696Q213 696 239 658T266 550Q266 475 228 418T110 322ZM370 322L334 396Q382
417 406 447T430 523Q427 522 420 522Q384 522 359 544T334 604Q334 646 358 671T420 696Q473 696 499 658T526 550Q526 475 488 418T370 322Z" />
<glyph unicode="&#x201e;" glyph-name="quotedblbase" horiz-adv-x="580" d="M110 -177L74 -103Q122 -82 146 -52T170 24Q167 23 160 23Q124 23 99 45T74 105Q74 147 98 172T160 197Q213 197 239 159T266 51Q266 -24 228 -81T110 -177ZM370 -177L334 -103Q382
-82 406 -52T430 24Q427 23 420 23Q384 23 359 45T334 105Q334 147 358 172T420 197Q473 197 499 159T526 51Q526 -24 488 -81T370 -177Z" />
<glyph unicode="&#x2022;" glyph-name="bullet" horiz-adv-x="360" d="M180 116Q150 116 125 127T80 158T51 204T40 262Q40 293 50 319T80 365T124 396T180 408Q210 408 235 397T280 366T309 320T320 262Q320 231 310 205T280 159T236 128T180 116Z" />
<glyph unicode="&#x2039;" glyph-name="guilsinglleft" horiz-adv-x="300" d="M184 52L50 192V312L184 452L246 402L138 252L246 102L184 52Z" />
<glyph unicode="&#x203a;" glyph-name="guilsinglright" horiz-adv-x="300" d="M116 52L54 102L162 252L54 402L116 452L250 312V192L116 52Z" />
</font>
</defs>
</svg>
